osu file format v14

[General]
AudioFilename: 23. LOVE B.B.B.mp3
AudioLeadIn: 1500
PreviewTime: 45128
Countdown: 0
SampleSet: Soft
StackLeniency: 0.7
Mode: 0
LetterboxInBreaks: 1
WidescreenStoryboard: 1

[Editor]
Bookmarks: 12180,53451,57266,65243,98191,99578
DistanceSpacing: 1.5
BeatDivisor: 4
GridSize: 16
TimelineZoom: 1.040002

[Metadata]
Title:LOVE B.B.B
TitleUnicode:LOVE B.B.B
Artist:SWAN K feat. Asuka M
ArtistUnicode:SWAN K feat. Asuka M
Creator:rs_fadeaway
Version:Hard
Source:beatmania IIDX 19 Lincle
Tags:DRUM'N'BASS dnb AgeSheRi ZZHBOY NextNaix
BeatmapID:762983
BeatmapSetID:143457

[Difficulty]
HPDrainRate:6
CircleSize:4
OverallDifficulty:4
ApproachRate:7
SliderMultiplier:1.2
SliderTickRate:1

[Events]
//Background and Video events
0,0,"BG.jpg",0,0
//Break Periods
2,67524,77522
//Storyboard Layer 0 (Background)
//Storyboard Layer 1 (Fail)
//Storyboard Layer 2 (Pass)
//Storyboard Layer 3 (Foreground)
//Storyboard Sound Samples

[TimingPoints]
735,346.820809248555,4,2,1,55,1,0
11486,-100,4,2,1,75,0,0
20156,-100,4,2,1,50,0,0
21544,-100,4,2,1,75,0,0
22584,-100,4,2,1,45,0,0
22931,-100,4,2,1,80,0,0
34029,-100,4,2,1,80,0,1
42353,-100,4,2,1,80,0,1
43047,-100,4,2,1,40,0,1
43740,-100,4,3,1,70,0,1
44087,-100,4,3,1,80,0,1
44434,-100,4,3,1,90,0,1
44781,-100,4,3,1,85,0,1
45128,-100,4,2,1,70,0,0
45821,-100,4,2,1,75,0,0
46515,-100,4,2,1,85,0,0
47035,-100,4,2,1,90,0,0
47382,-100,4,2,1,95,0,0
47902,-100,4,2,1,90,0,0
48422,-100,4,2,1,80,0,0
49463,-100,4,2,1,70,0,0
49723,-100,4,2,1,75,0,0
49983,-100,4,2,1,80,0,0
50243,-100,4,2,1,85,0,0
50503,-100,4,2,1,75,0,0
61775,-100,4,2,1,55,0,0
62122,-100,4,2,1,65,0,0
63162,-100,4,2,1,75,0,0
64723,-100,4,2,1,85,0,0
65763,-100,4,2,1,80,0,0
65937,-100,4,2,1,75,0,0
67151,-100,4,2,1,70,0,0
67324,-100,4,2,1,75,0,0
78769,-100,4,2,1,55,0,0
79116,-100,4,3,1,55,0,0
79983,-100,4,3,1,55,0,0
82498,-100,4,3,1,80,0,0
82584,-100,4,3,1,80,0,0
83278,-100,4,3,1,50,0,0
83885,-100,4,3,1,55,0,0
83971,-100,4,3,1,55,0,0
86746,-100,4,2,1,80,0,0
89174,-100,4,2,1,5,0,0
89521,-100,4,2,1,80,0,1
97844,-100,4,3,1,85,0,0
98538,-100,4,3,1,75,0,0
99232,-100,4,3,1,85,0,0
99925,-100,4,3,1,75,0,0
100619,-100,4,2,1,90,0,1
108943,-100,4,2,1,70,0,0
111717,-100,4,2,1,60,0,0
114145,-100,4,2,1,5,0,0

[Colours]
Combo1 : 255,128,128
Combo2 : 50,192,192
Combo3 : 211,88,208
Combo4 : 135,128,225

[HitObjects]
63,67,388,5,0,0:0:0:0:
132,102,561,1,0,0:0:0:0:
204,132,735,2,0,L|324:109,1,120,0|2,0:0|0:0,0:0:0:0:
474,75,1428,1,0,0:0:0:0:
418,220,1775,1,2,0:0:0:0:
321,97,2122,2,0,B|309:146|315:194|334:236,1,120,0|2,0:0|0:0,0:0:0:0:
447,331,2815,2,0,B|400:312|351:312|307:326,1,120,0|2,0:0|0:0,0:0:0:0:
247,331,3336,1,2,0:0:0:0:
236,253,3509,6,0,B|249:210|245:167|229:129,1,120,0|2,0:0|0:0,0:0:0:0:
106,40,4203,2,0,B|89:79|89:121|101:158,1,120,0|2,0:0|0:0,0:0:0:0:
184,212,4896,2,0,L|301:188,2,120,0|2|0,0:0|0:0|0:0,0:0:0:0:
3,203,5937,5,2,0:0:0:0:
59,256,6110,1,0,0:0:0:0:
119,305,6284,2,0,L|241:279,1,120,0|2,0:0|0:0,0:0:0:0:
389,251,6977,1,0,0:0:0:0:
276,359,7324,1,2,0:0:0:0:
292,203,7671,2,0,L|275:78,1,120,0|2,0:0|0:0,0:0:0:0:
126,36,8365,1,0,0:0:0:0:
60,177,8711,1,2,0:0:0:0:
137,183,8885,1,2,0:0:0:0:
214,193,9058,6,0,L|228:315,1,120,0|2,0:0|0:0,0:0:0:0:
78,359,9752,1,0,0:0:0:0:
78,359,10099,1,2,0:0:0:0:
284,311,10445,2,0,B|328:301|371:311|405:333,2,120,0|2|0,0:0|0:0|0:0,0:0:0:0:
131,346,11486,5,0,0:0:0:0:
164,275,11659,1,0,0:0:0:0:
167,196,11833,2,0,B|165:168|152:143|133:126,1,60,8|2,0:0|0:0,0:0:0:0:
96,80,12180,2,0,B|75:99|64:125|64:151,1,60,0|2,0:0|0:0,0:0:0:0:
43,205,12526,1,0,0:0:0:0:
78,275,12700,1,2,0:0:0:0:
153,294,12873,2,0,B|182:299|209:289|228:271,1,60,0|2,0:0|0:0,0:0:0:0:
268,230,13220,6,0,L|281:161,2,60,0|2|0,0:0|0:0|0:0,0:0:0:0:
311,294,13740,1,2,0:0:0:0:
380,329,13914,2,0,B|428:337|473:321|506:292,1,120,0|0,0:0|0:0,0:0:0:0:
418,165,14607,6,0,B|421:139|416:115|404:94,1,60,0|2,0:0|0:0,0:0:0:0:
375,35,14954,2,0,B|348:48|318:51|291:46,1,60,0|2,0:0|0:0,0:0:0:0:
238,50,15301,1,0,0:0:0:0:
160,45,15474,1,2,0:0:0:0:
83,27,15648,2,0,L|92:109,1,60,0|2,0:0|0:0,0:0:0:0:
149,143,15995,6,0,L|158:225,1,60,0|2,0:0|0:0,0:0:0:0:
62,310,16341,2,0,B|98:287|138:278|177:283,1,120,0|0,0:0|0:0,0:0:0:0:
303,347,17035,1,0,0:0:0:0:
363,297,17208,1,0,0:0:0:0:
444,286,17382,6,0,L|458:213,1,60,8|2,0:0|0:0,0:0:0:0:
378,206,17729,2,0,L|363:147,1,60,0|2,0:0|0:0,0:0:0:0:
441,141,18076,1,0,0:0:0:0:
461,65,18249,1,2,0:0:0:0:
388,35,18422,2,0,B|366:26|342:27|322:37,1,60,0|2,0:0|0:0,0:0:0:0:
264,96,18769,6,0,B|243:109|218:107|199:94,1,60,0|2,0:0|0:0,0:0:0:0:
136,48,19116,2,0,B|114:39|90:40|70:50,1,60,0|2,0:0|0:0,0:0:0:0:
28,119,19463,2,0,B|93:144|125:214|107:277,1,180,0|2,0:0|0:0,0:0:0:0:
174,322,20156,6,0,L|217:342,2,40,0|2|2,0:0|0:0|0:0,0:0:0:0:
257,273,20503,2,0,L|304:281,2,40,0|2|2,0:0|0:0|0:0,0:0:0:0:
326,205,20850,2,0,L|374:201,2,40,0|2|2,0:0|0:0|0:0,0:0:0:0:
363,116,21197,2,0,L|408:99,2,40,0|2|2,0:0|0:0|0:0,0:0:0:0:
256,192,21544,12,8,22584,0:0:0:0:
80,125,22931,6,0,B|126:101|176:95|222:105,1,120,4|0,0:0|0:0,0:0:0:0:
279,112,23451,1,8,0:0:0:0:
279,112,23798,1,0,0:0:0:0:
221,186,23971,2,0,B|259:211|306:206|338:180,1,120,8|0,0:0|0:0,0:0:0:0:
365,91,24492,2,0,L|380:17,1,60,8|0,0:0|0:0,0:0:0:0:
415,195,25012,2,0,L|430:121,2,60,8|0|8,0:0|0:0|0:0,0:0:0:0:
283,299,25706,6,0,B|239:280|192:285|155:309,1,120,8|0,0:0|0:0,0:0:0:0:
104,358,26226,1,8,0:0:0:0:
104,358,26573,1,0,0:0:0:0:
81,277,26746,2,0,B|57:217|65:153,1,120,8|0,0:0|0:0,0:0:0:0:
66,68,27266,2,0,B|86:83|110:88|132:83,1,60,8|0,0:0|0:0,0:0:0:0:
209,60,27613,1,0,0:0:0:0:
186,147,27787,2,0,B|182:183|194:216,2,60,8|0|8,0:0|0:0|0:0,0:0:0:0:
450,85,28480,6,0,B|410:101|368:97|333:80,1,120,8|0,0:0|0:0,0:0:0:0:
247,40,29000,1,8,0:0:0:0:
247,40,29347,1,0,0:0:0:0:
264,128,29521,2,0,B|281:172|282:217|271:258,1,120,8|0,0:0|0:0,0:0:0:0:
363,244,30041,2,0,B|381:277|382:314,1,60,8|0,0:0|0:0,0:0:0:0:
206,342,30561,2,0,B|187:308|186:270,2,60,8|0|8,0:0|0:0|0:0,0:0:0:0:
25,355,31255,6,0,B|14:307|23:261|46:223,1,120,8|0,0:0|0:0,0:0:0:0:
27,148,31775,1,8,0:0:0:0:
27,148,32122,1,0,0:0:0:0:
106,190,32295,2,0,B|148:204|191:203|229:190,1,120,8|0,0:0|0:0,0:0:0:0:
308,159,32815,1,8,0:0:0:0:
241,107,32989,2,0,L|253:46,1,60,0|0,0:0|0:0,0:0:0:0:
326,71,33336,2,0,L|337:12,2,60,8|8|8,0:0|0:0|0:0,0:0:0:0:
449,204,34029,6,0,B|441:272|464:336,1,120,8|4,0:0|0:0,0:0:0:0:
380,352,34550,1,0,0:0:0:0:
359,264,34723,2,0,B|329:247|296:243,1,60,2|0,1:0|1:0,0:0:0:0:
291,333,35070,2,0,B|258:341|232:364,1,60,8|6,0:0|0:1,0:0:0:0:
61,320,35590,2,0,B|94:310|119:288,1,60,2|0,1:0|0:0,0:0:0:0:
136,204,35937,1,0,1:0:0:0:
140,112,36110,2,0,L|129:52,2,60,0|8|12,1:0|0:0|0:0,0:0:0:0:
422,108,36804,6,0,B|386:130|342:125|312:101,1,120,8|4,0:0|0:0,0:0:0:0:
241,42,37324,1,0,0:0:0:0:
219,129,37498,2,0,L|230:195,1,60,2|0,1:0|1:0,0:0:0:0:
133,196,37844,2,0,L|135:261,1,60,8|6,0:0|1:0,0:0:0:0:
287,342,38365,2,0,L|285:282,1,60,2|0,1:0|0:0,0:0:0:0:
340,210,38711,1,0,1:0:0:0:
412,269,38885,2,0,B|440:281|471:279|496:266,2,60,0|8|12,1:0|0:0|0:0,0:0:0:0:
445,31,39578,6,0,B|476:63|475:113|446:143,1,120,8|4,0:0|0:0,0:0:0:0:
383,198,40099,1,0,0:0:0:0:
339,123,40272,2,0,B|327:95|304:76|278:67,1,60,2|0,1:0|1:0,0:0:0:0:
210,91,40619,2,0,B|187:87|165:93|147:104,1,60,8|6,0:0|0:1,0:0:0:0:
1,220,41139,2,0,B|20:229|40:232|60:230,1,60,2|0,1:0|0:0,0:0:0:0:
154,219,41486,1,0,1:0:0:0:
192,302,41659,2,0,B|203:320|209:339|210:359,2,60,0|0|2,1:0|1:0|1:0,0:0:0:0:
335,308,42353,6,0,B|447:290|496:145|395:42|281:53|227:120,1,420,2|0,0:1|0:0,0:0:0:0:
287,175,43740,2,0,L|330:229,1,60,4|4,0:0|0:0,0:0:0:0:
268,285,44087,2,0,L|221:227,1,60,4|4,0:0|0:0,0:0:0:0:
182,307,44434,2,0,L|225:358,2,60,4|4|4,0:0|0:0|0:1,0:0:0:0:
58,320,45128,6,0,B|81:284|87:243,1,60,8|0,0:0|0:0,0:0:0:0:
80,177,45474,1,4,0:0:0:0:
31,105,45648,1,0,0:0:0:0:
112,64,45821,2,0,B|142:85|179:90,1,60,0|8,0:0|0:0,0:0:0:0:
256,96,46168,2,0,B|293:97|327:85,1,60,4|0,0:0|0:0,0:0:0:0:
384,32,46515,6,0,L|449:65,1,60,8|8,0:0|0:0,0:0:0:0:
407,125,46862,2,0,L|451:182,1,60,4|0,0:0|0:0,0:0:0:0:
383,212,47208,2,0,L|392:284,1,60,8|8,0:0|0:0,0:0:0:0:
345,349,47555,1,4,0:0:0:0:
304,272,47729,1,0,0:0:0:0:
304,272,47902,6,0,B|260:291|214:296|170:291,1,120,8|4,0:0|0:0,0:0:0:0:
107,289,48422,1,0,0:0:0:0:
107,289,48596,2,0,L|33:270,2,60,0|8|4,0:0|0:0|0:0,0:0:0:0:
53,129,49289,6,0,L|23:198,1,60,8|2,0:0|0:0,0:0:0:0:
113,189,49636,2,0,L|174:212,1,60,2|0,0:0|0:0,0:0:0:0:
174,126,49983,2,0,L|198:71,1,60,2|0,0:0|0:0,0:0:0:0:
114,65,50330,2,0,L|57:43,1,60,0|2,0:0|0:0,0:0:0:0:
53,129,50677,6,0,B|84:190|84:259,1,120,0|0,0:0|0:0,0:0:0:0:
77,326,51197,1,0,0:0:0:0:
168,299,51370,2,0,B|194:292|220:296|241:308,2,60,8|0|0,0:0|0:0|0:0,0:0:0:0:
306,108,52064,6,0,B|302:177|267:236,1,120,0|4,0:0|0:0,0:0:0:0:
227,301,52584,1,0,0:0:0:0:
319,317,52758,2,0,B|345:321|367:336|381:356,2,60,0|0|0,0:0|0:0|0:0,0:0:0:0:
130,351,53451,6,0,B|88:335|58:302|45:264,1,120,8|0,0:0|0:0,0:0:0:0:
71,191,53971,1,0,0:0:0:0:
145,215,54145,1,0,0:0:0:0:
194,288,54318,1,8,0:0:0:0:
270,305,54492,1,4,0:0:0:0:
414,307,54839,6,0,L|470:264,1,60,0|2,0:0|0:0,0:0:0:0:
438,178,55185,2,0,L|375:177,1,60,4|2,0:0|0:0,0:0:0:0:
365,79,55532,2,0,L|288:77,1,60,0|10,0:0|0:0,0:0:0:0:
268,166,55879,2,0,L|188:147,1,60,4|2,0:0|0:0,0:0:0:0:
189,59,56226,6,0,B|149:81|126:120|121:162,1,120,8|4,0:0|0:0,0:0:0:0:
34,155,56746,2,0,B|32:204|51:248|84:278,1,120,0|8,3:0|3:2,0:0:0:0:
137,317,57266,1,4,0:0:0:0:
137,317,57440,1,0,0:0:0:0:
214,286,57613,2,0,B|295:270|374:288,1,120,8|4,3:0|0:0,0:0:0:0:
396,336,58133,2,0,B|428:302|444:259|445:216,1,120,0|8,3:0|0:0,0:0:0:0:
390,150,58654,1,4,0:0:0:0:
390,150,58827,1,0,0:0:0:0:
468,95,59000,6,0,L|490:27,2,60,8|0|4,0:0|2:0|0:0,0:0:0:0:
390,150,59521,2,0,L|371:207,2,60,8|0|8,0:0|0:0|0:0,0:0:0:0:
371,55,60041,1,4,0:0:0:0:
251,123,60388,2,0,L|187:144,1,60,8|8,0:0|0:0,0:0:0:0:
164,63,60735,2,0,L|100:84,1,60,4|0,0:0|0:0,0:0:0:0:
108,165,61081,2,0,L|44:186,1,60,8|8,0:0|0:0,0:0:0:0:
57,267,61428,2,0,L|-7:288,1,60,4|0,0:0|0:0,0:0:0:0:
149,306,61775,6,0,B|174:328|205:336|235:332,1,80,8|0,3:2|0:0,0:0:0:0:
286,255,62122,2,0,B|320:263|353:257|380:242,1,80,6|2,0:0|0:0,0:0:0:0:
470,348,62469,2,0,B|475:313|466:281|448:255,1,80,2|2,0:0|0:0,0:0:0:0:
430,182,62815,2,0,B|428:153|436:126|450:104,1,80,2|2,0:0|0:0,0:0:0:0:
371,42,63162,6,0,L|335:88,2,40,10|2|10,3:0|0:0|3:0,0:0:0:0:
269,47,63509,2,0,L|233:93,2,40,2|2|2,0:0|0:0|0:0,0:0:0:0:
165,105,63856,2,0,L|109:93,2,40,10|2|10,3:0|0:0|3:0,0:0:0:0:
60,151,64203,2,0,L|3:139,2,40,2|2|2,0:0|0:0|0:0,0:0:0:0:
165,105,64550,6,0,B|147:152|152:201|174:241,1,120,0|0,3:0|0:0,0:0:0:0:
108,340,65243,2,0,B|82:359|52:365|23:361,2,90,2|2|8,0:0|0:0|0:0,0:0:0:0:
194,313,65937,2,0,B|230:293|271:290|307:301,1,90,2|2,0:0|0:0,0:0:0:0:
413,321,66457,1,10,0:0:0:0:
381,236,66630,2,0,B|364:203|364:167|379:136,2,90,2|2|8,0:0|0:0|0:0,0:0:0:0:
413,321,67324,1,8,0:0:0:0:
75,332,78422,6,0,B|117:343|159:338|195:322,1,120,12|8,0:0|0:0,0:0:0:0:
253,273,78943,1,0,0:0:0:0:
282,200,79116,2,0,B|328:177|379:178,2,90,4|4|4,0:0|0:0|0:0,0:0:0:0:
134,122,79983,2,0,L|151:20,1,90,8|8,0:0|0:0,0:0:0:0:
319,79,80503,2,0,B|285:86|251:84|220:74,2,90,8|8|8,0:0|0:0|0:0,0:0:0:0:
403,82,81197,6,0,L|381:210,1,120,4|4,0:0|0:0,0:0:0:0:
333,268,81717,1,0,0:0:0:0:
248,273,81891,2,0,L|229:364,2,90,8|8|8,0:0|0:0|0:0,0:0:0:0:
219,107,82758,2,0,B|196:80|167:62|136:53,1,90,0|2,0:0|0:0,0:0:0:0:
116,178,83278,2,0,B|80:182|49:200|30:227,2,90,0|0|8,0:0|0:0|0:0,0:0:0:0:
130,264,83971,6,0,L|110:339,2,60,4|0|4,0:0|0:0|0:0,0:0:0:0:
222,213,84492,1,0,0:0:0:0:
234,312,84665,2,0,L|327:316,2,90,8|8|8,0:0|0:0|0:0,0:0:0:0:
403,238,85532,2,0,L|315:215,1,90,4|4,0:0|0:0,0:0:0:0:
290,119,86052,1,12,0:0:0:0:
395,124,86313,2,0,L|488:130,1,90,8|8,0:0|0:0,0:0:0:0:
256,192,86746,12,4,89174,0:0:0:0:
15,153,89521,6,0,B|48:172|89:163|113:134|117:101,1,120,8|4,0:0|0:0,0:0:0:0:
173,49,90041,1,0,0:0:0:0:
173,49,90214,2,0,B|220:62|246:110|233:155,1,120,2|8,1:0|0:0,0:0:0:0:
156,189,90735,2,0,B|169:215|196:230|223:230,1,60,6|0,1:0|0:0,0:0:0:0:
284,239,91081,2,0,B|312:241|338:233|360:220,1,60,2|0,1:0|0:0,0:0:0:0:
419,195,91428,1,0,1:0:0:0:
448,114,91602,2,0,L|467:47,2,60,0|8|2,1:0|0:0|1:0,0:0:0:0:
293,31,92295,6,0,B|285:79|308:124|345:149,1,120,8|12,0:0|0:0,0:0:0:0:
402,186,92815,1,0,0:0:0:0:
402,186,92989,2,0,B|425:233|421:284|399:326,1,120,2|8,1:0|0:0,0:0:0:0:
326,310,93509,2,0,B|309:331|287:344|263:348,1,60,6|0,1:0|0:0,0:0:0:0:
228,274,93856,2,0,B|205:286|180:289|158:284,1,60,2|0,1:0|0:0,0:0:0:0:
108,220,94203,1,0,1:0:0:0:
72,302,94376,2,0,B|63:327|64:352|72:375,2,60,0|8|2,1:0|0:0|1:0,0:0:0:0:
22,144,95070,6,0,B|65:120|114:116|157:129,1,120,8|12,0:0|0:0,0:0:0:0:
155,25,95590,1,0,0:0:0:0:
155,25,95763,2,0,B|172:81|235:109|288:85,1,120,2|8,1:0|0:0,0:0:0:0:
328,99,96284,2,0,L|397:87,1,60,6|0,1:0|0:0,0:0:0:0:
405,170,96630,2,0,L|474:158,1,60,2|0,1:0|0:0,0:0:0:0:
492,239,96977,1,0,1:0:0:0:
409,256,97151,2,0,L|339:269,2,60,0|8|2,1:0|0:0|1:0,0:0:0:0:
257,329,97844,5,2,1:0:0:0:
239,246,98018,1,0,0:0:0:0:
222,163,98191,2,0,L|211:103,1,60,2|0,1:0|0:0,0:0:0:0:
125,122,98538,2,0,L|110:36,1,60,8|8,0:0|0:0,0:0:0:0:
31,77,98885,2,0,L|16:-9,1,60,8|8,0:0|0:0,0:0:0:0:
46,153,99232,5,2,1:0:0:0:
62,235,99406,1,0,0:0:0:0:
81,316,99578,2,0,L|91:375,1,60,2|0,1:0|0:0,0:0:0:0:
152,257,99925,2,0,L|162:316,1,60,8|8,0:0|0:0,0:0:0:0:
217,195,100272,2,0,L|227:254,1,60,8|8,0:0|0:0,0:0:0:0:
192,96,100619,6,0,B|170:142|124:168|77:167,1,120,12|4,0:0|0:0,0:0:0:0:
12,179,101139,1,0,0:0:0:0:
12,179,101313,2,0,B|28:226|69:257|115:261,1,120,2|8,1:0|0:0,0:0:0:0:
175,284,101833,2,0,B|191:309|198:338|196:366,1,60,6|0,1:0|0:0,0:0:0:0:
279,343,102180,2,0,B|292:316|314:296|339:284,1,60,2|0,1:0|0:0,0:0:0:0:
387,251,102526,1,0,1:0:0:0:
420,328,102700,2,0,B|450:318|470:293|476:264,2,60,0|8|2,1:0|0:0|1:0,0:0:0:0:
453,163,103393,6,0,B|404:144|352:153|312:181,1,120,8|4,0:0|0:0,0:0:0:0:
275,222,103914,1,0,0:0:0:0:
275,222,104087,2,0,B|241:187|233:137|251:96,1,120,2|8,1:0|0:0,0:0:0:0:
168,51,104607,2,0,B|148:43|127:42|108:46,1,60,6|0,1:0|0:0,0:0:0:0:
133,145,104954,2,0,B|112:140|91:147|77:161,1,60,2|0,1:0|0:0,0:0:0:0:
34,253,105301,1,0,1:0:0:0:
130,254,105474,2,0,B|157:259|180:271|199:288,2,60,0|8|2,1:0|0:0|1:0,0:0:0:0:
283,342,106168,6,0,B|319:318|359:308|398:309,1,120,8|4,0:0|0:0,0:0:0:0:
459,245,106688,1,0,0:0:0:0:
459,245,106862,2,0,B|437:161|458:112,1,120,2|8,1:0|0:0,0:0:0:0:
376,55,107382,2,0,L|352:112,1,60,6|0,1:0|0:0,0:0:0:0:
276,158,107729,2,0,L|216:165,1,60,2|0,1:0|0:0,0:0:0:0:
138,120,108076,1,0,1:0:0:0:
138,120,108249,2,0,L|78:127,2,60,0|8|2,1:0|0:0|1:0,0:0:0:0:
363,113,108943,6,0,B|402:167|393:241|342:287|284:295,1,240,8|8,0:0|0:0,0:0:0:0:
193,305,109810,1,0,0:0:0:0:
193,305,109983,1,0,0:0:0:0:
167,126,110330,2,0,L|157:46,2,60,0|8|0,0:0|0:0|0:0,0:0:0:0:
344,161,111024,2,0,L|352:223,2,60,8|0|0,0:0|0:0|0:0,0:0:0:0:
256,192,111717,12,0,114145,0:0:0:0:
